sábado, 11 de febrero de 2017

WAYNE SHORTER / SCHIZOPHRENIA . 1967.

Calidad HD Tracks

TRACKS :

01-Tom Thumb
02-Go
03-Schizophrenia
04-Kryptonite
05-Miyako
06-Playground

MUSICOS :

Wayne Shorter – tenor saxophone
Curtis Fuller – trombone
James Spaulding – flute, alto saxophone
Herbie Hancock – piano
Ron Carter – bass
Joe Chambers – drums.

💙💙💙💙💙



PART 1.

PART 2.

PART 3.

PART 4.

PART 5.

PART 6.

PART 7.

5 comentarios:

pepejazzy dijo...

Saludos,PPJZZ.

Oleg dijo...

Hi! Can anyone is interested:
DR Peak RMS Duration Track
––––––––––––––––––––––––––––––––––––––––
DR13 0.00 dB -16.38 dB 6:13 01-Tom Thumb
DR13 -1.76 dB -18.67 dB 5:41 02-Go
DR13 0.00 dB -16.68 dB 6:51 03-Schizophrenia
DR13 -2.41 dB -18.76 dB 6:28 04-Kryptonite
DR13 -1.91 dB -19.09 dB 5:01 05-Miyako
DR14 0.00 dB -18.09 dB 6:22 06-Playground
––––––––––––––––––––––––––––––––––––––––
Number of tracks: 6
Official DR value: DR13
Saludos cordiales!

Sebastián Ignacio López Bustos dijo...

Hola PepeJazz! Gracias por estas joyas!!!
Tengo un problema al abrir estos archivos!!! Me pide password!!!
Me ayudas??
Gracias!!!
Saludos!!!

pepejazzy dijo...

Hola Sebastian....el pass es Saludos,PPJZZ. Presta atencion a las mayusculas,la coma y el punto final.Saludos,PPJZZ.

Sebastián Ignacio López Bustos dijo...

Muuuuuchas gracias!!!!